<?xml version="1.0" standalone="no"?>
<!DOCTYPE svg PUBLIC "-//W3C//DTD SVG 1.1//EN" "http://www.w3.org/Graphics/SVG/1.1/DTD/svg11.dtd" >
<svg xmlns="http://www.w3.org/2000/svg">
<metadata>Generated by IcoMoon</metadata>
<defs>
<font id="kmong-icon" horiz-adv-x="1024">
<font-face units-per-em="1024" ascent="960" descent="-64" />
<missing-glyph horiz-adv-x="1024" />
<glyph unicode="&#x20;" horiz-adv-x="512" d="" />
<glyph unicode="&#xe900;" glyph-name="cash-mileage" d="M640.832 318.336c0-15.424-5.504-26.432-21.952-26.432-16 0-20.928 9.472-24.448 22.4-11.456 44.928-50.368 97.792-96.704 119.68-26.432 12.544-51.392 14.016-51.392 32.96 0 22.976 22.912 19.456 50.88 31.424 38.79 17.455 67.974 50.407 79.995 90.754l0.261 1.022c6.528 23.424 3.52 49.856 28.928 49.856 16.96 0 25.472-11.968 25.472-27.456 0-65.28-63.36-135.104-128.192-145.088 67.84-9.984 137.152-79.808 137.152-149.12zM384 615.552c0 14.464 10.496 24.448 24.96 24.448 13.952 0 24.96-9.984 24.96-24.448v-299.2c0.003-0.139 0.005-0.303 0.005-0.467 0-13.255-10.745-24-24-24-0.339 0-0.677 0.007-1.013 0.021l0.048-0.002c-14.464 0-24.96 9.472-24.96 24.448v299.2zM630.72 592.896c-1.216-3.328-2.304-9.6-3.072-13.952-1.257-7.575-2.637-13.841-4.297-19.992l0.329 1.432c-4.138-13.997-9.429-26.157-15.989-37.491l0.437 0.819c14.592 20.224 23.68 43.392 23.68 65.28 0.009 0.162 0.013 0.352 0.013 0.544 0 1.201-0.192 2.356-0.548 3.438l0.022-0.078h-0.64zM432.448 592.896c-0.106 0.010-0.228 0.016-0.353 0.016-0.447 0-0.876-0.076-1.274-0.216l0.027 0.008 0.128-139.776 2.944 0.448v138.624l-1.472 0.896zM582.72 394.624c29.312-29.44 50.112-66.88 58.048-97.92v-0.128c-0.768 35.2-25.088 73.28-58.048 98.048zM430.976 434.304l0.064-141.44c-0.64-1.408 2.88-0.64 2.88-0.64v141.568l-2.944 0.384zM384 445.632v146.432c0 27.328 20.864 47.936 48.448 47.936 27.2 0 48.512-21.12 48.512-48v-105.28c3.584 1.28 7.040 2.176 10.176 3.072 6.592 1.792 13.44 3.712 20.352 6.656 31.872 13.696 56.896 42.368 66.944 76.8 1.216 4.352 2.048 9.216 2.88 13.888 3.008 17.152 9.344 52.864 48.64 52.864 28.8 0 48.96-20.928 48.96-50.944 0-55.040-36.864-112.32-86.592-144.256 54.592-32.256 95.552-92.224 95.552-150.016 0-36.8-23.488-49.92-45.44-49.92-24.192 0-40.064 13.44-47.168 39.872-9.152 35.84-41.728 84.48-84.096 104.512-6.4 3.008-13.056 5.376-19.456 7.68-3.328 1.28-7.040 2.56-10.752 4.096v-108.16c0-26.944-21.312-48-48.512-48-28.096 0-48.448 20.16-48.448 48v152.768zM495.616 46.976c-228.906 0.255-414.401 185.75-414.656 414.632v0.024c0.255 228.906 185.75 414.401 414.632 414.656h0.024c228.878-0.291 414.337-185.773 414.592-414.631v-0.025c-0.255-228.883-185.714-414.365-414.564-414.656h-0.028zM495.616 957.248c-273.28 0-495.616-222.336-495.616-495.616s222.336-495.616 495.616-495.616 495.552 222.336 495.552 495.616-222.272 495.616-495.552 495.616zM499.456 104.768c-196.424 0.219-355.594 159.411-355.776 355.823v0.017c0.255 196.374 159.396 355.493 355.755 355.712h0.021c196.401-0.218 355.557-159.374 355.776-355.755v-0.021c-0.219-196.424-159.411-355.594-355.823-355.776h-0.017zM499.456 832c-205.061-0.218-371.237-166.394-371.456-371.435v-0.021c0.218-205.061 166.394-371.237 371.435-371.456h0.021c205.061 0.218 371.237 166.394 371.456 371.435v0.021c-0.218 205.061-166.394 371.237-371.435 371.456h-0.021z" />
<glyph unicode="&#xe901;" glyph-name="dash-board" d="M424.96 99.84h174.080v696.32h-174.080v-696.32zM163.84 99.84h174.080v348.16h-174.080v-348.16zM686.080 578.58v-478.74h174.080v478.74h-174.080z" />
<glyph unicode="&#xe902;" glyph-name="message" d="M163.84 644.854l342.426-252.027 384.492 260.833v-514.867h-718.725zM163.84 714.24h726.917l-391.168-246.866z" />
<glyph unicode="&#xe903;" glyph-name="notification" d="M494.592 58.88c42.803 0 77.824 35.021 77.824 77.824h-155.648c0-42.803 35.021-77.824 77.824-77.824zM747.52 292.352v214.016c-0.055 118.918-82.195 218.635-192.83 245.568l-1.73 0.356v26.46c0 32.276-26.051 58.368-58.368 58.368-32.276 0-58.368-26.051-58.368-58.368v-26.46c-112.365-27.289-194.505-127.006-194.56-245.918v-214.022l-77.824-77.824v-38.912h661.504v38.912l-77.824 77.824z" />
<glyph unicode="&#xe904;" glyph-name="kmong-check" horiz-adv-x="1365" d="M480.711 151.495l-296.505 296.505-101.035-100.238 397.54-397.54 853.333 853.333-100.238 100.238z" />
<glyph unicode="&#xe905;" glyph-name="schedule" horiz-adv-x="878" d="M682.642 521.143h-487.57v-97.499h487.57v97.499zM780.215 862.501h-48.786v97.499h-97.499v-97.499h-390.144v97.499h-97.499v-97.499h-48.786c-54.126 0-96.987-43.886-96.987-97.573l-0.512-682.642c0-53.614 43.374-97.499 97.499-97.499h682.715c53.614 0 97.499 43.886 97.499 97.499v682.642c0 53.687-43.886 97.573-97.499 97.573zM780.215 82.286h-682.715v536.357h682.715v-536.357zM536.357 326.071h-341.285v-97.499h341.285v97.499z" />
<glyph unicode="&#xe906;" glyph-name="kmong-arrow-top" d="M570.182-17.455v708.049l325.26-325.167 82.013 82.572-465.455 465.455-465.455-465.455 82.013-82.013 325.26 324.608v-708.049z" />
<glyph unicode="&#xe907;" glyph-name="kmong-angel-bottom" horiz-adv-x="1463" d="M1290.971 936.887l-559.543-558.373-559.543 558.373-171.886-171.886 731.429-731.429 731.429 731.429z" />
<glyph unicode="&#xe908;" glyph-name="kmong-heart" horiz-adv-x="1078" d="M781.474 960c-93.777 0-183.781-43.655-242.526-112.64-58.745 68.985-148.749 112.64-242.526 112.64-165.996 0-296.421-130.425-296.421-296.421 0-203.722 183.242-369.718 460.8-621.945l78.147-70.602 78.147 71.141c277.558 251.688 460.8 417.684 460.8 621.406 0 165.996-130.425 296.421-296.421 296.421zM544.337 121.937l-5.389-5.389-5.389 5.389c-256.539 232.286-425.768 385.886-425.768 541.642 0 107.789 80.842 188.632 188.632 188.632 82.998 0 163.84-53.356 192.404-127.192h100.783c28.025 73.836 108.867 127.192 191.865 127.192 107.789 0 188.632-80.842 188.632-188.632 0-155.756-169.229-309.356-425.768-541.642z" />
<glyph unicode="&#xe909;" glyph-name="kmong-phone" d="M853.312 298.688c-0.21 0-0.458-0.001-0.707-0.001-54.217 0-106.354 8.901-155.031 25.321l3.418-1.001c-3.947 1.302-8.49 2.053-13.208 2.053-11.79 0-22.485-4.688-30.323-12.303l-93.814-93.878c-121.695 62.779-218.411 159.475-279.531 277.572l-1.685 3.58 93.888 94.336c7.875 7.48 12.774 18.028 12.774 29.72 0 4.616-0.763 9.053-2.171 13.193l0.085-0.288c-15.42 45.26-24.321 97.397-24.321 151.613 0 0.249 0 0.497 0.001 0.746v-0.039c0 23.488-19.2 42.688-42.688 42.688h-149.312c-23.488 0-42.688-19.2-42.688-42.688 0-400.64 324.672-725.312 725.312-725.312 23.488 0 42.688 19.2 42.688 42.688v149.312c0 23.488-19.2 42.688-42.688 42.688zM810.688 448h85.312c0 212.077-171.923 384-384 384v0-85.312c0.076 0 0.166 0 0.256 0 164.819 0 298.432-133.613 298.432-298.432 0-0.090 0-0.18 0-0.27v0.014zM640 448h85.312c-0.073 117.779-95.532 213.239-213.305 213.312h-0.007v-85.312c70.848 0 128-57.152 128-128z" />
<glyph unicode="&#xe90a;" glyph-name="kmong-question" d="M512 874.667c-235.52 0-426.667-191.147-426.667-426.667s191.147-426.667 426.667-426.667 426.667 191.147 426.667 426.667-191.147 426.667-426.667 426.667zM554.667 149.333h-85.333v85.333h85.333v-85.333zM643.004 480.017l-38.434-39.253c-30.72-31.198-49.903-56.798-49.903-120.764h-85.333v21.367c0 46.899 19.183 89.566 49.903 120.695l52.907 53.794c15.838 15.36 25.19 36.659 25.19 60.143 0 46.967-38.434 85.333-85.333 85.333-46.967 0-85.333-38.434-85.333-85.333h-85.333c0 94.257 76.41 170.667 170.667 170.667s170.667-76.41 170.667-170.667v0c0-37.547-15.36-71.68-39.663-95.983z" />
<glyph unicode="&#xe90b;" glyph-name="location" horiz-adv-x="731" d="M341.358 960c-0.087 0-0.19 0-0.293 0-188.365 0-341.065-152.7-341.065-341.065 0-0.103 0-0.206 0-0.308v0.016c0-256 341.358-633.856 341.358-633.856s341.285 377.856 341.285 633.856c0 0.087 0 0.19 0 0.293 0 188.365-152.7 341.065-341.065 341.065-0.077 0-0.154 0-0.231 0h0.011zM341.358 496.786c-67.34 0-121.929 54.59-121.929 121.929s54.59 121.929 121.929 121.929v0c67.34 0 121.929-54.59 121.929-121.929s-54.59-121.929-121.929-121.929v0z" />
<glyph unicode="&#xe90c;" glyph-name="kmong-video" horiz-adv-x="1497" d="M1158.577 571.077v287.193c-0.156 45.259-36.815 81.904-82.065 82.038h-984.628c-45.245-0.156-81.882-36.793-82.038-82.023v-820.554c0.156-45.245 36.793-81.882 82.023-82.038h984.63c45.262 0.134 81.921 36.779 82.077 82.023v287.208l328.192-328.192v902.538l-328.192-328.192z" />
<glyph unicode="&#xe90d;" glyph-name="select-arrow" horiz-adv-x="1067" d="M332.8 533.333l213.333-213.333 213.333 213.333z" />
<glyph unicode="" glyph-name="select-arrow" horiz-adv-x="1067" d="M332.8 533.333l213.333-213.333 213.333 213.333z" />
<glyph unicode="크몽캐시" glyph-name="cash-mileage" d="M640.832 318.336c0-15.424-5.504-26.432-21.952-26.432-16 0-20.928 9.472-24.448 22.4-11.456 44.928-50.368 97.792-96.704 119.68-26.432 12.544-51.392 14.016-51.392 32.96 0 22.976 22.912 19.456 50.88 31.424 38.79 17.455 67.974 50.407 79.995 90.754l0.261 1.022c6.528 23.424 3.52 49.856 28.928 49.856 16.96 0 25.472-11.968 25.472-27.456 0-65.28-63.36-135.104-128.192-145.088 67.84-9.984 137.152-79.808 137.152-149.12zM384 615.552c0 14.464 10.496 24.448 24.96 24.448 13.952 0 24.96-9.984 24.96-24.448v-299.2c0.003-0.139 0.005-0.303 0.005-0.467 0-13.255-10.745-24-24-24-0.339 0-0.677 0.007-1.013 0.021l0.048-0.002c-14.464 0-24.96 9.472-24.96 24.448v299.2zM630.72 592.896c-1.216-3.328-2.304-9.6-3.072-13.952-1.257-7.575-2.637-13.841-4.297-19.992l0.329 1.432c-4.138-13.997-9.429-26.157-15.989-37.491l0.437 0.819c14.592 20.224 23.68 43.392 23.68 65.28 0.009 0.162 0.013 0.352 0.013 0.544 0 1.201-0.192 2.356-0.548 3.438l0.022-0.078h-0.64zM432.448 592.896c-0.106 0.010-0.228 0.016-0.353 0.016-0.447 0-0.876-0.076-1.274-0.216l0.027 0.008 0.128-139.776 2.944 0.448v138.624l-1.472 0.896zM582.72 394.624c29.312-29.44 50.112-66.88 58.048-97.92v-0.128c-0.768 35.2-25.088 73.28-58.048 98.048zM430.976 434.304l0.064-141.44c-0.64-1.408 2.88-0.64 2.88-0.64v141.568l-2.944 0.384zM384 445.632v146.432c0 27.328 20.864 47.936 48.448 47.936 27.2 0 48.512-21.12 48.512-48v-105.28c3.584 1.28 7.040 2.176 10.176 3.072 6.592 1.792 13.44 3.712 20.352 6.656 31.872 13.696 56.896 42.368 66.944 76.8 1.216 4.352 2.048 9.216 2.88 13.888 3.008 17.152 9.344 52.864 48.64 52.864 28.8 0 48.96-20.928 48.96-50.944 0-55.040-36.864-112.32-86.592-144.256 54.592-32.256 95.552-92.224 95.552-150.016 0-36.8-23.488-49.92-45.44-49.92-24.192 0-40.064 13.44-47.168 39.872-9.152 35.84-41.728 84.48-84.096 104.512-6.4 3.008-13.056 5.376-19.456 7.68-3.328 1.28-7.040 2.56-10.752 4.096v-108.16c0-26.944-21.312-48-48.512-48-28.096 0-48.448 20.16-48.448 48v152.768zM495.616 46.976c-228.906 0.255-414.401 185.75-414.656 414.632v0.024c0.255 228.906 185.75 414.401 414.632 414.656h0.024c228.878-0.291 414.337-185.773 414.592-414.631v-0.025c-0.255-228.883-185.714-414.365-414.564-414.656h-0.028zM495.616 957.248c-273.28 0-495.616-222.336-495.616-495.616s222.336-495.616 495.616-495.616 495.552 222.336 495.552 495.616-222.272 495.616-495.552 495.616zM499.456 104.768c-196.424 0.219-355.594 159.411-355.776 355.823v0.017c0.255 196.374 159.396 355.493 355.755 355.712h0.021c196.401-0.218 355.557-159.374 355.776-355.755v-0.021c-0.219-196.424-159.411-355.594-355.823-355.776h-0.017zM499.456 832c-205.061-0.218-371.237-166.394-371.456-371.435v-0.021c0.218-205.061 166.394-371.237 371.435-371.456h0.021c205.061 0.218 371.237 166.394 371.456 371.435v0.021c-0.218 205.061-166.394 371.237-371.435 371.456h-0.021z" />
<glyph unicode="알림" glyph-name="notification" d="M494.592 58.88c42.803 0 77.824 35.021 77.824 77.824h-155.648c0-42.803 35.021-77.824 77.824-77.824zM747.52 292.352v214.016c-0.055 118.918-82.195 218.635-192.83 245.568l-1.73 0.356v26.46c0 32.276-26.051 58.368-58.368 58.368-32.276 0-58.368-26.051-58.368-58.368v-26.46c-112.365-27.289-194.505-127.006-194.56-245.918v-214.022l-77.824-77.824v-38.912h661.504v38.912l-77.824 77.824z" />
<glyph unicode="메시지" glyph-name="message" d="M163.84 644.854l342.426-252.027 384.492 260.833v-514.867h-718.725zM163.84 714.24h726.917l-391.168-246.866z" />
<glyph unicode="마이크몽" glyph-name="dash-board" d="M424.96 99.84h174.080v696.32h-174.080v-696.32zM163.84 99.84h174.080v348.16h-174.080v-348.16zM686.080 578.58v-478.74h174.080v478.74h-174.080z" />
</font>
</defs>
</svg>
